#TITLE:Brahms;
#SUBTITLE:(O2 Version);
#ARTIST:Beautiful Day;
#TITLETRANSLIT:;
#SUBTITLETRANSLIT:;
#ARTISTTRANSLIT:;
#CREDIT:;
#BANNER:Brahms (o2 version) - banner.jpg;
#BACKGROUND:Brahms (o2 version) - bg.jpg;
#LYRICSPATH:;
#CDTITLE:pfx - icon.png;
#MUSIC:Brahms (O2 Version).mp3;
#OFFSET:-3.359;
#SAMPLESTART:15.958;
#SAMPLELENGTH:12.000;
#SELECTABLE:YES;
#BPMS:0.000=145.000;
#STOPS:;
#BGCHANGES:;
// cache tags:
#FIRSTBEAT:0.000;
#LASTBEAT:238.000;
#SONGFILENAME:Songs/Music V.I.P ^_^/Brahms (O2 version)/Brahms (O2 Version).sm;
#HASMUSIC:1;
#HASBANNER:1;
#MUSICLENGTH:104.211;
// end cache tags

//---------------dance-single - Hard----------------
#NOTES:
     dance-single:
     Hard:
     Hard:
     10:
     0.987,0.942,0.940,0.336,1.000,587.000,98.000,35.000,0.000,0.000:
1000
0000
0000
0100
0010
0000
0000
0010
,
0100
0000
0000
0000
0000
0000
1000
0001
1000
0000
0000
0000
0000
0000
0000
0000
,
0001
0000
0000
0000
0000
0000
1000
0010
0100
0000
0000
0000
1001
0000
0000
0000
,
0001
0010
0001
0100
0001
0000
0000
0010
0100
0000
0000
0000
0110
0000
0000
0000
,
0001
0000
0000
0000
0000
0000
0001
0100
0010
0000
0000
0000
1100
0000
0010
0000
,
0100
0000
0000
0000
0000
0000
0100
0010
0001
0000
0000
0000
1001
0000
0000
0000
,
1000
0100
0010
0001
1000
0010
0100
0001
1000
0100
0010
0001
1000
0010
0100
0001
,
1000
0100
1000
0010
1000
0000
0000
0010
0100
0000
0000
0000
1001
0000
0000
0000
,
1001
1000
0110
0001
0100
0010
1100
0010
,
0001
0100
0011
0100
1000
0010
0110
0001
,
1000
0001
0101
1000
0001
0010
1001
0100
,
0010
0001
0010
0001
1100
0000
0000
0010
0100
0000
1000
0000
1001
0000
0000
0000
,
1001
0000
0000
0100
0010
0001
1000
0100
0010
0000
0000
0000
1001
0000
0100
0000
,
0010
0000
0000
0000
0101
0000
1000
0010
0100
0000
0000
0000
1001
0000
0000
0000
,
1000
0100
0010
0001
1000
0010
0100
0001
1000
0001
0010
0100
1000
0010
0100
0001
,
1000
0001
1000
0010
1000
0000
0000
0010
0100
0000
0110
0000
1001
0000
0000
0000
,
0110
0000
0000
0000
1001
0000
0000
0000
1000
0100
1100
0000
0011
0000
0000
0000
,
0220
0330
2200
3300
0022
0033
1100
0011
,
0000
0000
0011
0000
0000
0000
1000
0100
0010
0001
0010
0100
1000
0000
0000
0000
,
2002
3003
0022
0033
0220
0330
0011
1100
,
0000
0000
1100
0000
0000
0000
0001
0010
0100
1000
0100
0010
0001
0000
0000
0000
,
2001
0000
3001
0110
1001
0110
0000
0011
,
0000
0000
1100
0000
0000
0000
1000
0010
0100
0001
0100
0010
1000
0000
0000
0000
,
2002
3003
0000
1010
2002
3003
0220
0330
,
0011
0000
0011
0000
0000
0000
1000
0100
1000
0010
1000
0001
1000
0000
0000
0000
,
1000
0100
0010
0001
1000
0100
0010
0001
0010
0100
1000
0001
0010
0100
1000
0001
,
1000
0100
0010
0001
0010
0100
1000
0100
0010
0001
0010
0001
0010
0100
1000
0100
,
0010
0100
1000
0001
0010
0100
0010
0001
1000
0010
0100
0010
1000
0001
0100
0010
,
0100
0001
1000
0100
0010
0001
0010
0001
0010
0100
1000
0100
0010
0001
0010
0100
,
0010
0001
0100
0010
0100
0001
0010
0100
1000
0100
0010
0100
1000
0010
0100
0010
,
1000
0100
0010
0001
1000
0100
0010
0001
1000
0010
0100
0001
1000
0010
0100
0001
,
1000
0000
1000
0000
1000
1000
0000
0001
1001
0000
0001
0000
0001
0001
0000
0010
,
0110
0000
1000
0000
1000
1000
0000
0001
0011
0000
0100
0000
0100
0100
0000
0000
,
1000
0100
0010
0001
1000
0100
0010
0001
1000
0010
0100
0001
1000
0010
0100
0001
,
1000
0100
1000
0100
1000
0010
0100
0001
0010
0001
0010
0001
0010
0001
0010
0100
,
1000
0100
0010
0100
1000
0010
0100
0010
1000
0100
0010
0001
0100
0010
0100
0001
,
1000
0100
0010
0001
1000
0100
0010
0001
1000
0010
0100
0001
1000
0010
0100
0001
,
1000
0001
0100
0010
1000
0001
0100
0010
0100
0010
0100
0001
0010
0100
1000
0100
,
0010
0100
1000
0001
0010
0100
0010
0001
0010
0100
1000
0100
1000
0100
0010
0001
,
0010
0001
0010
0100
1000
0001
0010
0100
1000
0001
0100
0010
1000
0001
0100
0010
,
1000
0100
1000
0100
1000
0100
1000
0010
0100
0010
0100
0010
0100
0001
0100
0010
,
1000
0001
1001
0100
0010
0100
1001
1000
,
0100
0000
0010
0000
0101
0000
0010
0100
0010
0000
0100
0000
0110
0000
0000
0000
,
1000
0100
0010
0001
1000
0100
0010
0001
1000
0010
0100
0001
1000
0010
0100
0001
,
1000
0100
1000
0100
1000
0100
0010
0001
0010
0001
0010
0001
0010
0100
1000
0100
,
0010
0000
0001
0000
1001
0000
1000
0100
0010
0000
0001
0000
0110
0000
0010
0000
,
1000
0000
0010
0000
0101
0000
0010
0001
0100
0000
0010
0000
1100
0000
1000
0000
,
1000
0001
0100
0010
1000
0001
0100
0010
1000
0100
0010
0001
1000
0100
0010
0001
,
1000
0100
1000
0100
1000
0000
0000
0001
0100
0000
1010
0000
1001
0000
0000
0000
,
0220
0330
0022
0033
2002
3003
1100
0011
,
0000
0000
0011
0000
0000
0000
1000
0100
0010
0100
1000
0010
0100
0000
0000
0000
,
0202
0303
0022
0033
2200
3300
1001
0110
,
0000
0000
0110
0000
0000
0000
0001
0010
0100
0010
0001
0100
0010
0000
0000
0000
,
2002
3003
0110
0000
0011
1100
0011
1100
,
0000
0000
1100
0000
0000
0000
1000
0010
0100
0010
0001
0010
0100
0000
0000
0000
,
1001
0000
0000
0000
0000
0000
0000
0110
0110
0000
0000
0000
0011
0000
0000
0000
,
1100
0000
1100
0000
0000
0000
0000
0110
1001
0000
0000
0000
1001
0000
0000
0000
,
0220
0000
0000
0000
0330
0000
0000
0011
1100
0000
0000
0000
1100
0000
0000
0000
,
1001
0000
1001
0000
0000
0000
1000
0100
0010
0001
0010
0100
1000
0000
0000
0000
,
0011
1100
1001
0000
;

//---------------dance-single - Medium----------------
#NOTES:
     dance-single:
     Medium:
     Medium:
     9:
     0.684,0.856,0.988,0.393,0.067,355.000,103.000,41.000,0.000,0.000:
1000
0000
0000
0010
0010
0000
0000
1000
,
1000
0000
0000
0000
0000
0000
0001
1000
0001
0000
0000
0000
0000
0000
0000
0000
,
1000
0000
0000
0000
0000
0000
0001
1000
0001
0000
0000
0000
0000
0000
0010
0000
,
0100
0000
0001
0000
0010
0000
0000
0010
0100
0000
0000
0000
1001
0000
0000
0000
,
1000
0000
0001
0000
0001
0000
1000
0001
1000
0000
0001
0000
0001
0000
1000
0000
,
0100
0000
0100
0000
0100
0000
0010
0001
0010
0000
0000
0000
1000
0000
0100
0000
,
1001
0001
1000
0100
1001
0001
0010
0100
,
1001
0000
0100
0000
0010
0000
0000
0010
0100
0000
0000
0000
0110
0000
0000
0000
,
1000
0010
1001
0010
0001
0010
0110
0010
,
0001
0010
0101
1000
0010
1000
1001
0100
,
0010
0100
0110
0100
0001
0100
0011
0000
,
1000
0100
0011
0100
1000
0100
0011
0000
,
1000
0100
1100
0010
0002
0000
0000
1003
,
1000
0000
0000
0000
0000
0000
0001
1000
0001
0000
0000
0000
0010
0000
0100
0000
,
0110
0011
1100
0110
,
1001
0000
0000
0000
0110
0000
0000
1000
0100
0000
0110
0000
1001
0000
0000
0000
,
1000
0001
2000
0000
3001
1000
0001
0000
,
1100
0000
0110
0000
0011
0010
0100
0010
,
0000
0010
0000
1000
1001
1000
1001
0000
,
1001
0000
0110
0000
0011
0001
0100
0010
,
0000
0010
0000
0001
1001
0001
1001
0000
,
2001
0000
3001
0010
0100
1000
0000
1000
,
0100
1000
0000
0010
0110
0010
0110
0000
,
1001
0000
0000
0010
0010
0000
1000
0000
,
0010
0010
0000
1000
1100
1000
1100
0000
,
1000
0001
1000
0001
1000
0010
1000
0010
,
1000
0010
0001
0010
1000
0010
0001
0010
,
1000
0100
0001
0100
1000
0100
0001
0100
,
1000
0010
0100
0001
1000
0010
0100
0001
,
1000
0100
0010
0001
1000
0010
0100
0001
,
0001
0010
0100
1000
0001
0100
0010
1000
,
2001
0001
0100
0001
,
0010
0001
0100
3010
,
0022
0000
0000
0000
0000
0000
0000
0033
2200
0000
0000
0000
0000
0000
0000
3300
,
0220
0000
0000
0000
0000
0000
0000
0330
2002
0000
0000
0000
0000
0000
0000
3003
,
0022
0000
0000
0000
0000
0000
0000
0033
2200
0000
0000
0000
0000
0000
3300
0000
,
2002
0000
0000
3003
0220
0000
0000
0330
,
2200
3300
0022
0033
0220
0330
2002
3003
,
0022
0033
2020
3030
0202
0303
2200
3300
,
0022
0033
0220
0330
1002
1000
1000
1000
,
1000
0010
0010
0010
0010
0100
0100
0100
,
0103
1000
1001
0010
0100
0010
1001
0010
,
0001
0010
1100
0010
0100
0010
1001
0010
,
0001
0010
0101
1000
0010
1000
0110
0010
,
0001
0010
0110
0010
0100
0010
0101
1000
,
0001
1000
1010
0100
0001
0100
0011
0100
,
1000
0100
1100
0010
0001
0010
1001
0000
,
1100
0011
0110
1001
,
0101
0000
0000
0000
1010
0000
0000
0010
0100
0000
0000
0000
0011
0000
0000
0000
,
1100
0000
1100
0000
0010
0001
0010
0000
,
0110
0000
1001
1000
0100
1000
0100
0000
,
1001
0000
0011
0000
1000
0100
1000
0000
,
1100
0000
1001
0010
0001
0010
0001
0000
,
1100
1100
0000
0011
0011
0011
0000
1100
,
0000
1100
0000
1001
1001
1001
1001
0000
,
0110
0000
0000
0000
0100
0000
0000
0100
0010
0000
0000
0000
1001
0000
0000
0010
,
0001
0000
0000
0000
1000
0000
0000
0100
0010
0000
0000
0000
1001
0000
0000
1000
,
0100
0000
0000
0000
1001
0000
0000
0100
0010
0000
0000
0000
1000
0000
0001
0000
,
0100
0010
0100
0001
1000
0001
0100
0000
,
0110
1001
0110
0000
;
